Форум о видеоуроках по компьютерной графике: Vegas 12 - Форум о видеоуроках по компьютерной графике

Перейти к содержимому

Страница 1 из 1
  • Вы не можете создать новую тему
  • Вы не можете ответить в тему

Vegas 12 Открывается только половина звуковой дорожки

#1
Пользователь офлайн   maxdiagnoz 

  • Новичок
  • Группа: Пользователи
  • Сообщений: 2
  • Регистрация: 08 Декабрь 14
  • Введите данные символы:2d-3d-4d
Проблема вот в чем. Я загружаю фильм в вегас 12, но звуковая дорожка открывается только на половину. дальше пол фильма она отсутствует просто. как это исправить, подскажите пожалуйста. Вот свойства видеофайла:

General
Format : AVI
Format/Info : Audio Video Interleave
File size : 508 MiB
Duration : 2h 28mn
Overall bit rate : 480 Kbps

Video
ID : 0
Format : MPEG-4 Visual
Format profile : Advanced Simple@L5
Format settings, BVOP : 2
Format settings, QPel : No
Format settings, GMC : No warppoints
Format settings, Matrix : Default (H.263)
Muxing mode : Packed bitstream
Codec ID : XVID
Codec ID/Hint : XviD
Duration : 2h 28mn
Bit rate : 350 Kbps
Width : 480 pixels
Height : 272 pixels
Display aspect ratio : 16:9
Frame rate : 30.000 fps
Original frame rate : 25.000 fps
Color space : YUV
Chroma subsampling : 4:2:0
Bit depth : 8 bits
Scan type : Progressive
Compression mode : Lossy
Bits/(Pixel*Frame) : 0.089
Stream size : 371 MiB (73%)
Writing library : XviD 64

Audio
ID : 1
Format : MPEG Audio
Format version : Version 2
Format profile : Layer 3
Mode : Joint stereo
Mode extension : Intensity Stereo + MS Stereo
Codec ID : 55
Codec ID/Hint : MP3
Duration : 2h 28mn
Bit rate mode : Constant
Bit rate : 96.0 Kbps
Channel count : 2 channels
Sampling rate : 24.0 KHz
Compression mode : Lossy
Delay relative to video : 33ms
Stream size : 102 MiB (20%)
Alignment : Split accross interleaves
Interleave, duration : 10 ms (0.30 video frame)
Interleave, preload duration : 780 ms
0

#2
Пользователь офлайн   artguk 

  • Эксперт
  • Группа: Модераторы
  • Сообщений: 956
  • Регистрация: 15 Январь 11
  • ГородОдесса
Я не знаю как это исправлять в вегасе, но могу посоветовать как обойти.
Берем конвертер видео (Format Factory или SUPER вполне подойдет) и выдергиваем им звук из видео в wav или иной подходящий формат (можно и виртуал дабом..не суть в общем...цель звук из видео достать :ab:). А потом подложить в вегас эту аудиодорожку отдельно :en:
Linkum
-...STOP: 0x0000007E (0xC0000005, 0x804E518E, 0xFC938104, 0xFC937E04) SYSTEM_THREAD_EXCEPTION_NOT_HANDLED"...-
-...Видимо пришло время переосмыслить выполненную работу...
0

#3
Пользователь офлайн   maxdiagnoz 

  • Новичок
  • Группа: Пользователи
  • Сообщений: 2
  • Регистрация: 08 Декабрь 14
  • Введите данные символы:2d-3d-4d

 artguk (09 Декабрь 2014 - 01:06) писал:

Я не знаю как это исправлять в вегасе, но могу посоветовать как обойти.
Берем конвертер видео (Format Factory или SUPER вполне подойдет) и выдергиваем им звук из видео в wav или иной подходящий формат (можно и виртуал дабом..не суть в общем...цель звук из видео достать :ab:). А потом подложить в вегас эту аудиодорожку отдельно :en:


Это понятно, так я и делаю. Хотелось бы проблему решить
0

Страница 1 из 1
  • Вы не можете создать новую тему
  • Вы не можете ответить в тему

1 человек читают эту тему
0 пользователей, 1 гостей, 0 скрытых пользователей


К форумамПанель входа
Зарегистрироваться